<?xml version="1.0" standalone="no"?>
<!DOCTYPE svg PUBLIC "-//W3C//DTD SVG 1.1//EN" "http://www.w3.org/Graphics/SVG/1.1/DTD/svg11.dtd" >
<svg xmlns="http://www.w3.org/2000/svg">
<metadata>Generated by IcoMoon</metadata>
<defs>
<font id="icomoon" horiz-adv-x="1024">
<font-face units-per-em="1024" ascent="960" descent="-64" />
<missing-glyph horiz-adv-x="1024" />
<glyph unicode="&#x20;" horiz-adv-x="512" d="" />
<glyph unicode="&#xe900;" glyph-name="1" d="M1014.474-2.084l-228.614 233.377c66.679 76.205 104.781 176.223 104.781 285.767 0 242.902-200.037 442.94-442.94 442.94s-447.702-200.037-447.702-442.94 200.037-442.94 442.94-442.94c109.544 0 209.563 38.102 290.53 104.781l228.614-233.377c14.288-14.288 38.102-14.288 52.391 0s14.288 38.102 0 52.391zM71.442 517.060c0 204.8 166.698 371.498 371.498 371.498s371.498-166.698 371.498-371.498c0-204.8-166.698-371.498-371.498-371.498s-371.498 166.698-371.498 371.498z" />
<glyph unicode="&#xe901;" glyph-name="2" horiz-adv-x="947" d="M463.36-64c-5.12 0-10.24 2.56-12.8 5.12s-33.28 35.84-445.44 494.080c-5.12 5.12-7.68 12.8-2.56 20.48 2.56 7.68 10.24 10.24 17.92 10.24h424.96v476.16c0 7.68 2.56 12.8 10.24 15.36 0 2.56 2.56 2.56 7.68 2.56 2.56 0 7.68 0 10.24-2.56l465.92-273.92c5.12-2.56 10.24-10.24 10.24-15.36v-437.76c0-7.68-2.56-12.8-10.24-15.36-5.12-2.56-465.92-273.92-465.92-273.92-2.56-5.12-7.68-5.12-10.24-5.12zM481.28-12.8l427.52 250.88v417.28l-427.52 253.44v-921.6zM442.88 2.56v427.52h-381.44l381.44-427.52z" />
<glyph unicode="&#xe902;" glyph-name="3" horiz-adv-x="1229" d="M614.4-64c-2.56 0-5.12 0-7.68 2.56-5.12 2.56-593.92 271.36-596.48 271.36-5.12 2.56-7.68 5.12-10.24 10.24s0 10.24 0 12.8l376.32 645.12c0 2.56 5.12 5.12 7.68 7.68l225.28 74.24c2.56 0 2.56 0 5.12 0s2.56 0 5.12 0l225.28-74.24c5.12-2.56 7.68-5.12 10.24-7.68l373.76-645.12c2.56-2.56 2.56-7.68 2.56-10.24 0-5.12-5.12-10.24-10.24-12.8 0 0 0 0-596.48-271.36-5.12-2.56-7.68-2.56-10.24-2.56zM596.48-17.92v442.88l-532.48-199.68 532.48-243.2zM632.32-17.92l532.48 243.2-532.48 197.12v-440.32zM1172.48 258.56l-340.48 588.8-197.12-66.56v-322.56l537.6-199.68zM56.32 258.56l540.16 202.24v320l-197.12 66.56-343.040-588.8zM614.4 814.080l168.96 56.32-168.96 53.76-168.96-56.32 168.96-53.76z" />
<glyph unicode="&#xe903;" glyph-name="4" d="M512-64c-281.6 0-512 230.4-512 512s230.4 512 512 512c281.6 0 512-230.4 512-512s-230.4-512-512-512zM99.84 215.040c84.48-148.48 240.64-240.64 412.16-240.64 261.12 0 473.6 212.48 473.6 473.6 0 158.72-130.56 289.28-289.28 289.28-56.32 0-110.080-15.36-156.16-46.080 69.12-61.44 107.52-148.48 107.52-243.2 0-102.4-46.080-197.12-128-258.56l-2.56-2.56c-56.32-43.52-125.44-66.56-197.12-66.56-79.36 2.56-161.28 35.84-220.16 94.72zM512 921.6c-261.12 0-473.6-212.48-473.6-473.6 0-158.72 130.56-289.28 289.28-289.28 56.32 0 110.080 15.36 156.16 46.080-69.12 61.44-107.52 148.48-107.52 243.2 0 102.4 46.080 197.12 128 258.56l2.56 2.56c56.32 43.52 125.44 66.56 197.12 66.56 87.040 0 166.4-33.28 227.84-92.16-89.6 145.92-248.32 238.080-419.84 238.080zM512 668.16c-64-53.76-102.4-135.68-102.4-220.16s35.84-163.84 102.4-220.16c64 53.76 102.4 135.68 102.4 220.16s-38.4 166.4-102.4 220.16z" />
<glyph unicode="&#xe904;" glyph-name="5" horiz-adv-x="1458" d="M516.096-64c-24.576 0-40.96 8.192-57.344 24.576l-434.176 425.984c-32.768 32.768-32.768 81.92 0 114.688s81.92 32.768 114.688 0l368.64-368.64 802.816 802.816c32.768 32.768 81.92 32.768 114.688 0s32.768-81.92 0-114.688l-851.968-860.16c-16.384-16.384-40.96-24.576-57.344-24.576z" />
<glyph unicode="&#xe905;" glyph-name="6" horiz-adv-x="1205" d="M1180.612-15.812h-33.129v590.306c0 12.047-12.047 24.094-24.094 24.094h-189.741c-12.047 0-24.094-12.047-24.094-24.094v-587.294h-51.2v412.612c0 12.047-12.047 24.094-24.094 24.094h-189.741c-12.047 0-24.094-12.047-24.094-24.094v-415.624h-51.2v590.306c0 12.047-12.047 24.094-24.094 24.094h-189.741c-12.047 0-24.094-12.047-24.094-24.094v-587.294h-39.153v298.165c0 12.047-12.047 24.094-24.094 24.094h-189.741c-12.047 0-24.094-12.047-24.094-24.094v-298.165h-30.118c-12.047 0-24.094-12.047-24.094-24.094 0-15.059 12.047-27.106 24.094-27.106h1156.518c12.047 0 24.094 12.047 24.094 24.094s-12.047 24.094-24.094 24.094zM243.953-15.812h-141.553v274.071h141.553v-274.071zM530.071-15.812h-141.553v566.212h141.553v-566.212zM816.188-15.812h-141.553v391.529h141.553v-391.529zM1102.306-15.812h-141.553v566.212h141.553v-566.212zM174.682 490.165c48.188 0 87.341 39.153 87.341 90.353 0 15.059-3.012 27.106-9.035 39.153l156.612 174.682c15.059-9.035 30.118-15.059 51.2-15.059 24.094 0 48.188 12.047 63.247 27.106l135.529-105.412c0-6.024-3.012-12.047-3.012-18.071 0-51.2 39.153-90.353 87.341-90.353s87.341 39.153 87.341 90.353c0 3.012 0 6.024 0 9.035l135.529 111.435c15.059-15.059 39.153-27.106 63.247-27.106 48.188 0 87.341 39.153 87.341 90.353s-39.153 90.353-87.341 90.353c-48.188 0-87.341-39.153-87.341-90.353 0-9.035 0-15.059 3.012-21.082l-129.506-105.412c-15.059 21.082-42.165 36.141-69.271 36.141s-48.188-12.047-66.259-30.118l-132.518 105.412c0 6.024 3.012 12.047 3.012 18.071 0 51.2-39.153 90.353-87.341 90.353s-87.341-39.153-87.341-90.353c0-12.047 3.012-27.106 9.035-36.141l-156.612-174.682c-15.059 9.035-30.118 15.059-48.188 15.059-48.188 0-87.341-42.165-87.341-90.353-9.035-54.212 30.118-93.365 81.318-93.365zM1030.024 911.812c24.094 0 42.165-18.071 42.165-42.165s-18.071-45.176-42.165-45.176c-24.094 0-42.165 18.071-42.165 42.165s21.082 45.176 42.165 45.176zM746.918 725.082c24.094 0 42.165-18.071 42.165-42.165s-18.071-42.165-42.165-42.165-42.165 18.071-42.165 42.165 18.071 42.165 42.165 42.165zM460.8 911.812c24.094 0 42.165-18.071 42.165-42.165s-18.071-42.165-42.165-42.165-42.165 18.071-42.165 42.165c0 24.094 18.071 42.165 42.165 42.165zM174.682 622.682c24.094 0 42.165-18.071 42.165-42.165s-18.071-42.165-42.165-42.165c-24.094 0-42.165 18.071-42.165 42.165 0 21.082 18.071 42.165 42.165 42.165z" />
<glyph unicode="&#xe906;" glyph-name="7" horiz-adv-x="1109" d="M841.956 544.711l5.689 2.844c28.444 17.067 48.356 42.667 56.889 71.111 8.533 31.289 2.844 62.578-11.378 91.022-17.067 28.444-42.667 48.356-73.956 54.044-31.289 8.533-62.578 2.844-91.022-11.378l-5.689-2.844-113.778 193.422c-5.689 8.533-14.222 14.222-22.756 14.222s-17.067-5.689-22.756-14.222c-82.489-153.6-199.111-278.756-355.556-378.311l-122.311-71.111c-39.822-22.756-65.422-56.889-76.8-102.4-14.222-42.667-8.533-85.333 14.222-125.156l45.511-79.644c31.289-54.044 88.178-82.489 147.911-82.489 25.6 0 51.2 5.689 73.956 17.067l179.2-176.356c5.689-5.689 11.378-8.533 19.911-8.533 5.689 0 14.222 2.844 19.911 8.533l91.022 91.022c11.378 11.378 11.378 25.6 0 36.978l-142.222 142.222c156.444 71.111 312.889 105.244 477.867 99.556 8.533 0 17.067 5.689 22.756 11.378 5.689 8.533 5.689 17.067 0 25.6l-116.622 193.422zM756.622 709.689c14.222 8.533 34.133 11.378 51.2 5.689s31.289-17.067 39.822-31.289c8.533-14.222 11.378-34.133 5.689-51.2s-17.067-31.289-31.289-39.822l-5.689-2.844-68.267 113.778 8.533 5.689zM184.889 160.711c-31.289 8.533-54.044 25.6-71.111 54.044l-45.511 79.644c-14.222 25.6-19.911 56.889-11.378 88.178s28.444 54.044 54.044 71.111l99.556 56.889 162.133-278.756-99.556-56.889c-25.6-19.911-56.889-22.756-88.178-14.222zM489.244-1.422l-150.756 150.756 68.267 39.822 136.533-136.533-54.044-54.044zM676.978 339.911c-85.333-17.067-170.667-48.356-256-88.178l-164.978 281.6c76.8 51.2 145.067 110.933 204.8 176.356 48.356 51.2 88.178 108.089 125.156 170.667l301.511-517.689c-71.111 0-142.222-8.533-210.489-22.756zM947.2 729.6c-8.533 11.378-2.844 28.444 8.533 36.978l88.178 48.356c11.378 8.533 28.444 2.844 36.978-8.533s2.844-28.444-8.533-36.978l-88.178-48.356c-2.844-2.844-8.533-2.844-14.222-2.844-11.378 0-19.911 2.844-22.756 11.378zM816.356 840.533l19.911 96.711c2.844 17.067 17.067 25.6 31.289 22.756s22.756-17.067 19.911-31.289l-19.911-96.711c-2.844-14.222-14.222-22.756-25.6-22.756-2.844 0-2.844 0-5.689 0-14.222 5.689-22.756 17.067-19.911 31.289zM1109.333 547.556c-2.844-11.378-14.222-17.067-25.6-17.067-2.844 0-5.689 0-8.533 0l-96.711 31.289c-14.222 5.689-22.756 19.911-17.067 34.133s19.911 19.911 34.133 17.067l96.711-31.289c11.378-5.689 19.911-19.911 17.067-34.133z" />
<glyph unicode="&#xe907;" glyph-name="8" d="M512 192c14.222 0 25.6 11.378 25.6 25.6s-11.378 25.6-25.6 25.6-25.6-11.378-25.6-25.6c0-14.222 11.378-25.6 25.6-25.6zM199.111-64c-14.222 0-25.6 11.378-25.6 25.6s11.378 25.6 25.6 25.6h122.311l42.667 88.178h-199.111c-91.022 0-164.978 73.956-164.978 164.978v554.667c0 91.022 73.956 164.978 164.978 164.978h694.044c91.022 0 164.978-73.956 164.978-164.978v-554.667c0-91.022-73.956-164.978-164.978-164.978h-201.956l42.667-88.178h125.156c14.222 0 25.6-11.378 25.6-25.6s-11.378-25.6-25.6-25.6h-625.778zM381.156-12.8h261.689l-42.667 88.178h-176.356l-42.667-88.178zM51.2 240.356c0-62.578 51.2-113.778 113.778-113.778h694.044c62.578 0 113.778 51.2 113.778 113.778v65.422h-921.6v-65.422zM164.978 908.8c-62.578 0-113.778-51.2-113.778-113.778v-435.2h918.756v435.2c0 62.578-51.2 113.778-113.778 113.778h-691.2zM233.244 462.222c-5.689 0-11.378 2.844-17.067 5.689v0c-11.378 8.533-11.378 25.6-2.844 36.978l139.378 159.289c17.067 19.911 42.667 31.289 68.267 31.289h2.844c25.6 0 51.2-11.378 68.267-28.444l51.2-54.044c8.533-8.533 17.067-11.378 28.444-11.378s22.756 5.689 28.444 14.222l113.778 125.156-73.956-8.533c0 0-2.844 0-2.844 0-14.222 0-25.6 11.378-25.6 22.756-2.844 14.222 8.533 28.444 22.756 28.444l128 14.222c0 0 2.844 0 2.844 0 19.911 0 34.133-14.222 36.978-34.133l14.222-128c2.844-14.222-8.533-28.444-22.756-28.444 0 0-2.844 0-2.844 0-14.222 0-25.6 11.378-25.6 22.756l-8.533 76.8-119.467-128c-17.067-19.911-42.667-28.444-68.267-28.444s-51.2 11.378-68.267 28.444l-51.2 54.044c-8.533 8.533-17.067 11.378-28.444 11.378v0c-11.378 0-22.756-5.689-28.444-14.222l-139.378-159.289c-5.689-5.689-14.222-8.533-19.911-8.533z" />
<glyph unicode="&#xe908;" glyph-name="9" d="M696.889 376.889c85.333 59.733 133.689 156.444 133.689 261.689 0 110.933-59.733 216.178-153.6 273.067-48.356 31.289-105.244 48.356-164.978 48.356-51.2 0-102.4-11.378-147.911-36.978-99.556-48.356-164.978-150.756-173.511-261.689s42.667-219.022 133.689-284.444l2.844-2.844v-108.089h-48.356v-51.2h119.467v-113.778c0-28.444 14.222-56.889 36.978-73.956l51.2-42.667v-48.356h51.2v48.356l51.2 39.822c22.756 19.911 36.978 45.511 36.978 76.8v113.778h122.311v51.2h-51.2v110.933zM571.733 100.978c0-14.222-5.689-25.6-17.067-34.133l-42.667-34.133-45.511 36.978c-11.378 8.533-17.067 19.911-17.067 34.133v113.778h122.311v-116.622zM654.222 411.022c-8.533-5.689-11.378-14.222-11.378-22.756v-122.311h-261.689v122.311c0 8.533-5.689 17.067-11.378 22.756-102.4 62.578-147.911 187.733-116.622 301.511 34.133 113.778 139.378 196.267 258.844 196.267s224.711-79.644 258.844-193.422c31.289-116.622-14.222-241.778-116.622-304.356zM483.556 598.756l-56.889 59.733-36.978-36.978 76.8-79.644c5.689-5.689 11.378-8.533 19.911-8.533s14.222 2.844 19.911 8.533l133.689 139.378-42.667 36.978-113.778-119.467zM901.689 647.111h122.311v-51.2h-122.311v51.2zM857.5 786.146l105.921 61.168 25.605-44.339-105.921-61.168-25.605 44.339zM859.669 456.063l25.595 44.344 105.934-61.143-25.595-44.344-105.934 61.143zM0 647.111h122.311v-51.2h-122.311v51.2zM35.16 802.268l25.595 44.344 105.934-61.143-25.595-44.344-105.934 61.143zM34.998 440.125l105.921 61.168 25.605-44.339-105.921-61.168-25.605 44.339z" />
<glyph unicode="&#xe909;" glyph-name="10" horiz-adv-x="825" d="M187.733 698.311h162.133c14.222 0 25.6 11.378 25.6 25.6s-11.378 25.6-25.6 25.6h-162.133c-14.222 0-25.6-11.378-25.6-25.6s11.378-25.6 25.6-25.6zM187.733 527.644h162.133c14.222 0 25.6 11.378 25.6 25.6s-11.378 25.6-25.6 25.6h-162.133c-14.222 0-25.6-11.378-25.6-25.6s11.378-25.6 25.6-25.6zM745.244 729.6l-142.222 147.911c-51.2 54.044-116.622 82.489-190.578 82.489h-224.711c-102.4 0-187.733-88.178-187.733-193.422v-634.311c0-108.089 85.333-196.267 187.733-196.267h449.422c102.4 0 187.733 88.178 187.733 193.422v403.911c0 73.956-28.444 145.067-79.644 196.267zM497.778 891.733c25.6-11.378 51.2-28.444 71.111-48.356l142.222-147.911c19.911-19.911 36.978-45.511 48.356-73.956h-204.8c-31.289 0-56.889 25.6-56.889 59.733v210.489zM776.533 129.422c0-79.644-62.578-145.067-139.378-145.067h-449.422c-76.8 0-139.378 65.422-139.378 145.067v637.156c0 79.644 62.578 145.067 139.378 145.067v0h224.711c11.378 0 22.756 0 36.978-2.844v-224.711c0-59.733 48.356-110.933 105.244-110.933h219.022c2.844-14.222 2.844-25.6 2.844-36.978v-406.756zM574.578 411.022h-324.267c-48.356 0-85.333-39.822-85.333-88.178v-85.333c0-48.356 39.822-88.178 85.333-88.178v0h327.111c48.356 0 85.333 39.822 85.333 88.178v85.333c0 48.356-39.822 88.178-88.178 88.178zM611.556 237.511c0-19.911-17.067-36.978-36.978-36.978h-324.267c-19.911 0-36.978 17.067-36.978 36.978v85.333c0 19.911 17.067 36.978 36.978 36.978h327.111c19.911 0 36.978-17.067 36.978-36.978v-85.333z" />
<glyph unicode="&#xe90a;" glyph-name="11" d="M512-64c-136.533 0-264.533 54.044-361.244 150.756s-150.756 224.711-150.756 361.244 54.044 264.533 150.756 361.244 224.711 150.756 361.244 150.756 264.533-54.044 361.244-150.756c96.711-96.711 150.756-224.711 150.756-361.244s-54.044-264.533-150.756-361.244c-96.711-96.711-224.711-150.756-361.244-150.756zM534.756-18.489h8.533c233.244 14.222 418.133 201.956 435.2 435.2v8.533h-108.089v-5.689c-5.689-48.356-48.356-85.333-96.711-85.333s-91.022 36.978-96.711 85.333v5.689h-139.378v-182.044h-36.978c-28.444 0-54.044-22.756-54.044-54.044 0-28.444 22.756-54.044 54.044-54.044h36.978l-2.844-153.6zM45.511 416.711c14.222-233.244 201.956-418.133 435.2-435.2h8.533v108.089h-5.689c-48.356 5.689-85.333 48.356-85.333 96.711s36.978 91.022 85.333 96.711h5.689v139.378h-182.044v36.978c0 28.444-22.756 54.044-54.044 54.044s-54.044-19.911-54.044-51.2v-36.978h-153.6v-8.533zM716.8 433.778c0-28.444 22.756-54.044 54.044-54.044 28.444 0 54.044 22.756 54.044 54.044v36.978h153.6v8.533c-17.067 233.244-201.956 418.133-435.2 435.2h-8.533v-108.089h5.689c48.356-5.689 85.333-48.356 85.333-96.711s-36.978-91.022-85.333-96.711h-5.689v-139.378h182.044v-39.822zM253.156 561.778c48.356 0 91.022-36.978 96.711-85.333v-5.689h139.378v182.044h36.978c28.444 0 54.044 22.756 54.044 54.044s-22.756 54.044-54.044 54.044h-36.978v153.6h-8.533c-233.244-17.067-418.133-201.956-435.2-435.2v-8.533h108.089v5.689c8.533 48.356 48.356 85.333 99.556 85.333z" />
<glyph unicode="&#xe90b;" glyph-name="12" horiz-adv-x="1463" d="M1418.971 930.743c-43.886 43.886-131.657 43.886-175.543 0l-702.171-702.171-321.829 321.829c-43.886 43.886-131.657 43.886-175.543 0s-43.886-131.657 0-175.543l424.229-409.6c14.629-14.629 43.886-29.257 73.143-29.257s58.514 14.629 87.771 29.257l789.943 775.314c58.514 58.514 58.514 131.657 0 190.171z" />
<glyph unicode="&#xe90c;" glyph-name="13" d="M652.8 448l332.8 332.8c38.4 38.4 38.4 102.4 0 140.8s-102.4 38.4-140.8 0l-332.8-332.8-332.8 345.6c-38.4 38.4-102.4 38.4-140.8 0s-38.4-102.4 0-140.8l332.8-345.6-345.6-332.8c-38.4-38.4-38.4-102.4 0-140.8s102.4-38.4 140.8 0l345.6 332.8 332.8-332.8c38.4-38.4 102.4-38.4 140.8 0s38.4 102.4 0 140.8l-332.8 332.8z" />
<glyph unicode="&#xe90d;" glyph-name="14" d="M1024 448c0-263.314-195.048-482.743-448.61-512v394.971h121.905l19.505 141.41h-136.533v82.895c0 39.010 9.752 68.267 68.267 68.267h73.143v126.781c-39.010 4.876-68.267 4.876-107.276 4.876-107.276 0-180.419-68.267-180.419-185.295v-102.4h-121.905v-141.41h121.905v-390.095c-248.686 39.010-433.981 253.562-433.981 512 0 282.819 229.181 512 512 512s512-229.181 512-512z" />
<glyph unicode="&#xe90e;" glyph-name="15" d="M512 960c-282.819 0-512-229.181-512-512s229.181-512 512-512c282.819 0 512 229.181 512 512s-229.181 512-512 512zM775.314 574.781c0-4.876 0-9.752 0-19.505 0-175.543-131.657-375.467-375.467-375.467-73.143 0-146.286 24.381-204.8 58.514 9.752 0 19.505 0 29.257 0 63.39 0 117.029 19.505 165.79 58.514-58.514 0-107.276 39.010-121.905 92.648 9.752 0 14.629 0 24.381 0s24.381 0 34.133 4.876c-58.514 9.752-107.276 63.39-107.276 126.781 0 0 0 0 0 0 19.505-9.752 39.010-14.629 58.514-14.629-34.133 24.381-58.514 63.39-58.514 107.276 0 24.381 4.876 48.762 19.505 68.267 63.39-78.019 160.914-131.657 273.067-136.533 0 9.752-4.876 19.505-4.876 29.257 0 73.143 58.514 131.657 131.657 131.657 39.010 0 73.143-14.629 97.524-43.886 29.257 4.876 58.514 14.629 82.895 34.133-9.752-29.257-29.257-58.514-58.514-73.143 29.257 4.876 53.638 9.752 78.019 19.505-14.629-24.381-39.010-48.762-63.39-68.267z" />
<glyph unicode="&#xe90f;" glyph-name="16" d="M512 960c-282.819 0-512-229.181-512-512s229.181-512 512-512c282.819 0 512 229.181 512 512s-229.181 512-512 512zM355.962 170.057h-136.533v394.971h131.657v-394.971zM287.695 623.543v0c-43.886 0-73.143 29.257-73.143 68.267s29.257 68.267 73.143 68.267c43.886 0 73.143-29.257 73.143-68.267s-29.257-68.267-73.143-68.267zM828.952 170.057h-131.657v214.552c0 53.638-19.505 87.771-68.267 87.771-34.133 0-58.514-24.381-68.267-48.762-4.876-9.752-4.876-19.505-4.876-34.133v-224.305h-126.781c0 0 0 360.838 0 399.848h131.657v-58.514c19.505 29.257 48.762 63.39 117.029 63.39 87.771 0 151.162-58.514 151.162-180.419v-219.429z" />
<glyph unicode="&#xe910;" glyph-name="17" d="M512 960c-282.819 0-512-229.181-512-512s229.181-512 512-512c282.819 0 512 229.181 512 512s-229.181 512-512 512zM848.457 725.943c63.39-73.143 97.524-170.667 97.524-273.067-14.629 4.876-160.914 34.133-302.324 14.629 0 4.876-4.876 14.629-9.752 19.505-9.752 19.505-19.505 43.886-29.257 63.39 160.914 68.267 234.057 160.914 243.81 175.543zM512 886.857c112.152 0 214.552-43.886 287.695-112.152-9.752-9.752-73.143-97.524-229.181-156.038-73.143 131.657-151.162 238.933-160.914 253.562 34.133 9.752 68.267 14.629 102.4 14.629zM326.705 842.971c9.752-14.629 87.771-121.905 160.914-253.562-204.8-53.638-385.219-53.638-404.724-53.638 29.257 136.533 121.905 248.686 243.81 307.2zM73.143 448c0 4.876 0 9.752 0 14.629 19.505 0 229.181-4.876 448.61 63.39 14.629-24.381 24.381-48.762 34.133-73.143-4.876 0-9.752-4.876-19.505-4.876-224.305-73.143-346.21-273.067-355.962-287.695-63.39 73.143-107.276 175.543-107.276 287.695zM512 9.143c-102.4 0-195.048 34.133-268.19 92.648 9.752 14.629 97.524 185.295 341.333 273.067 0 0 0 0 4.876 0 63.39-160.914 87.771-292.571 92.648-331.581-53.638-19.505-112.152-34.133-170.667-34.133zM755.81 87.162c-4.876 24.381-29.257 156.038-82.895 312.076 136.533 19.505 258.438-14.629 273.067-19.505-19.505-121.905-92.648-229.181-190.171-292.571z" />
<glyph unicode="&#xe911;" glyph-name="18" d="M985.898 288.447c0 0 0 0 0 0v0l-95.256 95.256c-28.577 28.577-61.916 42.865-100.019 42.865s-71.442-14.288-100.019-42.865c0 0 0 0 0 0l-52.391-52.391-238.14 238.14 52.391 52.391c0 0 0 0 0 0 57.153 57.153 57.153 147.647 0 200.037l-95.256 95.256c-28.577 28.577-66.679 42.865-104.781 42.865s-71.442-14.288-100.019-42.865c0 0 0 0 0 0l-42.865-42.865c-23.814-23.814-42.865-42.865-42.865-42.865-66.679-66.679-85.73-176.223-47.628-304.819 38.102-119.070 114.307-242.902 223.851-347.684 152.409-147.647 333.395-242.902 481.042-242.902 71.442 0 133.358 23.814 176.223 66.679 0 0 23.814 23.814 52.391 52.391l33.34 33.34c52.391 52.391 52.391 142.884 0 200.037 0 0 0 0 0 0zM914.456 159.851c0-4.763 0-4.763 0 0l-33.34-33.34c-28.577-28.577-52.391-52.391-52.391-52.391-23.814-23.814-57.153-38.102-104.781-38.102-119.070 0-276.242 85.73-409.6 214.326-95.256 95.256-166.698 204.8-195.274 309.581-28.577 85.73-23.814 161.935 19.051 200.037l85.73 85.73c0 0 0 0 0 0 9.526 9.526 19.051 14.288 28.577 14.288s23.814-4.763 28.577-14.288v0l95.256-95.256c14.288-14.288 14.288-42.865 0-61.916l-85.73-85.73c-19.051-19.051-19.051-47.628 0-71.442l304.819-304.819c9.526-9.526 23.814-14.288 33.34-14.288 14.288 0 23.814 4.763 33.34 14.288l85.73 85.73c0 0 0 0 0 0 9.526 9.526 19.051 14.288 28.577 14.288s23.814-4.763 28.577-14.288l95.256-95.256c28.577-14.288 28.577-42.865 14.288-57.153z" />
<glyph unicode="&#xe912;" glyph-name="19" horiz-adv-x="1081" d="M1069.511 527.644c-2.844 2.844-5.689 2.844-11.378 2.844s-8.533 0-14.222-2.844l-389.689-267.378-102.4 68.267c-2.844 2.844-5.689 5.689-11.378 5.689s-8.533 0-14.222-2.844l-99.556-71.111-361.244 244.622 167.822 99.556c11.378 5.689 14.222 19.911 8.533 31.289-2.844 5.689-11.378 11.378-19.911 11.378-5.689 0-8.533 0-11.378-2.844l-199.111-116.622c-5.689-5.689-11.378-14.222-11.378-19.911v-486.4c0-56.889 28.444-85.333 85.333-85.333h910.222c56.889 0 85.333 28.444 85.333 85.333v486.4c0 8.533-5.689 14.222-11.378 19.911zM48.356 4.267l-2.844 28.444c0 0 0 2.844 0 5.689v426.667l338.489-230.4-335.644-230.4zM96.711-18.489l443.733 301.511 443.733-301.511h-887.467zM1035.378 38.4c0-2.844 0-2.844 0-5.689l-2.844-28.444-335.644 227.556 338.489 230.4v-423.822zM389.689 641.422h11.378l36.978-176.356c2.844-11.378 11.378-17.067 22.756-17.067 2.844 0 2.844 0 5.689 0 5.689 0 11.378 5.689 14.222 8.533 2.844 5.689 5.689 11.378 2.844 17.067l-34.133 167.822h19.911c68.267 0 182.044 0 253.156-71.111 5.689-5.689 11.378-5.689 17.067-5.689 2.844 0 5.689 0 8.533 2.844 8.533 2.844 14.222 11.378 14.222 19.911v349.867c0 8.533-5.689 17.067-14.222 19.911-2.844 2.844-5.689 2.844-8.533 2.844-5.689 0-11.378-2.844-17.067-5.689-73.956-71.111-182.044-71.111-261.689-71.111h-59.733c-68.267 0-122.311-54.044-122.311-119.467s48.356-116.622 110.933-122.311zM483.556 834.844h17.067c56.889 0 128 5.689 190.578 39.822l25.6 11.378v-253.156l-25.6 14.222c-62.578 31.289-136.533 36.978-190.578 39.822h-17.067v147.911zM401.067 834.844h36.978v-150.756h-36.978c-42.667 0-76.8 34.133-76.8 73.956s34.133 76.8 76.8 76.8zM887.467 760.889c0-11.378 11.378-22.756 22.756-22.756h79.644c14.222 0 22.756 11.378 22.756 22.756s-11.378 22.756-22.756 22.756h-79.644c-14.222 0-22.756-8.533-22.756-22.756zM870.4 846.222c2.844 0 8.533 0 11.378 2.844l68.267 39.822c11.378 5.689 14.222 19.911 8.533 31.289-2.844 8.533-11.378 11.378-19.911 11.378-2.844 0-8.533 0-11.378-2.844l-68.267-39.822c-11.378-5.689-14.222-19.911-8.533-31.289 2.844-5.689 11.378-11.378 19.911-11.378zM859.022 632.889l68.267-39.822c2.844-2.844 8.533-2.844 11.378-2.844 8.533 0 17.067 2.844 19.911 11.378 2.844 5.689 2.844 11.378 2.844 17.067-2.844 5.689-5.689 11.378-11.378 14.222l-68.267 39.822c-2.844 2.844-8.533 2.844-11.378 2.844-8.533 0-17.067-2.844-19.911-11.378-2.844-5.689-2.844-11.378-2.844-17.067 2.844-5.689 5.689-11.378 11.378-14.222z" />
<glyph unicode="&#xe913;" glyph-name="20" horiz-adv-x="1223" d="M438.044-64c-36.978 0-71.111 22.756-88.178 56.889l-91.022 182.044h-2.844c-5.689 0-11.378 0-19.911 0-22.756 0-42.667 5.689-62.578 17.067-14.222 8.533-28.444 19.911-36.978 31.289v2.844l-17.067-5.689c-5.689-2.844-14.222-2.844-19.911-2.844-36.978 0-68.267 25.6-76.8 59.733l-19.911 71.111c-5.689 22.756-2.844 42.667 8.533 62.578s28.444 31.289 48.356 36.978l17.067 5.689v2.844c5.689 48.356 42.667 91.022 93.867 105.244l17.067 5.689-2.844 2.844c-34.133 42.667-54.044 96.711-54.044 150.756-2.844 130.844 105.244 238.933 236.089 238.933 56.889 0 110.933-19.911 156.444-56.889 42.667-36.978 71.111-88.178 79.644-145.067v-5.689l5.689 5.689c34.133 34.133 62.578 71.111 85.333 110.933v0 0c-2.844 17.067 0 36.978 8.533 51.2 11.378 17.067 25.6 31.289 45.511 36.978 5.689 2.844 14.222 2.844 19.911 2.844 14.222 0 25.6-2.844 36.978-11.378 17.067-11.378 31.289-25.6 34.133-45.511l54.044-199.111 71.111-22.756c34.133-11.378 56.889-34.133 65.422-68.267l14.222-48.356c8.533-34.133 0-68.267-22.756-93.867l-51.2-54.044 54.044-199.111c11.378-39.822-14.222-82.489-54.044-93.867-5.689-2.844-14.222-2.844-19.911-2.844-14.222 0-25.6 2.844-36.978 11.378-14.222 8.533-28.444 22.756-34.133 39.822v0 0c-82.489 48.356-176.356 73.956-273.067 73.956-36.978 0-76.8-2.844-113.778-11.378h-2.844l48.356-176.356c5.689-25.6 2.844-51.2-8.533-73.956-14.222-22.756-34.133-39.822-59.733-45.511-11.378-2.844-22.756-2.844-31.289-2.844zM312.889 189.156l85.333-170.667c8.533-19.911 22.756-28.444 42.667-28.444 5.689 0 8.533 0 14.222 2.844 11.378 2.844 19.911 8.533 25.6 19.911v2.844c5.689 11.378 8.533 22.756 5.689 34.133l-48.356 176.356-125.156-36.978zM768 905.956c-2.844 0-2.844 0-5.689 0-5.689-2.844-11.378-5.689-14.222-11.378s-2.844-11.378-2.844-17.067l182.044-685.511c2.844-5.689 5.689-11.378 11.378-14.222 2.844-2.844 8.533-2.844 11.378-2.844s2.844 0 5.689 0c11.378 2.844 19.911 17.067 17.067 28.444l-184.889 685.511c-2.844 5.689-5.689 11.378-11.378 14.222 0 2.844-5.689 2.844-8.533 2.844zM182.044 507.733c-39.822-11.378-62.578-51.2-51.2-91.022l36.978-136.533c5.689-19.911 17.067-34.133 34.133-45.511 11.378-5.689 22.756-11.378 36.978-11.378 5.689 0 14.222 0 19.911 2.844l164.978 45.511-54.044 207.644h-2.844c-45.511 0-91.022 14.222-130.844 39.822v0l-54.044-11.378zM603.022 300.089c28.444 0 59.733-2.844 88.178-5.689 56.889-8.533 110.933-25.6 162.133-48.356l5.689-2.844-147.911 554.667-2.844-5.689c-31.289-42.667-65.422-79.644-105.244-113.778v0 0c-17.067-91.022-85.333-164.978-176.356-187.733h-2.844l48.356-184.889 5.689-17.067h2.844c36.978 8.533 82.489 11.378 122.311 11.378zM73.956 396.8c-5.689-2.844-11.378-5.689-17.067-11.378-2.844-5.689-5.689-14.222-2.844-19.911l19.911-71.111c2.844-11.378 14.222-19.911 25.6-19.911 2.844 0 5.689 0 5.689 0h8.533l-34.133 122.311h-5.689zM952.889 479.289l28.444 31.289c11.378 11.378 14.222 28.444 11.378 42.667l-14.222 48.356c-5.689 17.067-14.222 28.444-31.289 31.289l-36.978 11.378 42.667-164.978zM366.933 905.956c-102.4 0-184.889-82.489-184.889-184.889s82.489-184.889 184.889-184.889c102.4 0 184.889 82.489 184.889 184.889s-82.489 184.889-184.889 184.889zM1169.067 399.644c-5.689 0-8.533 0-14.222 2.844l-68.267 39.822c-5.689 2.844-11.378 8.533-11.378 17.067-2.844 5.689 0 14.222 2.844 19.911 5.689 8.533 14.222 14.222 22.756 14.222 5.689 0 8.533 0 14.222-2.844l68.267-39.822c5.689-2.844 11.378-8.533 11.378-17.067 2.844-5.689 0-14.222-2.844-19.911-2.844-8.533-14.222-14.222-22.756-14.222zM1120.711 584.533c-11.378 0-22.756 8.533-25.6 19.911-2.844 5.689 0 14.222 2.844 19.911s8.533 11.378 17.067 11.378l76.8 19.911c2.844 0 5.689 0 5.689 0 11.378 0 22.756-8.533 25.6-19.911 2.844-5.689 0-14.222-2.844-19.911s-8.533-11.378-17.067-11.378l-76.8-19.911c0 0-2.844 0-5.689 0zM318.578 607.289c-5.689 0-8.533 0-14.222 2.844-8.533 5.689-14.222 14.222-14.222 22.756v173.511c0 8.533 5.689 17.067 14.222 22.756 2.844 2.844 8.533 2.844 14.222 2.844s8.533 0 14.222-2.844l147.911-85.333c8.533-5.689 14.222-14.222 14.222-22.756s-5.689-17.067-14.222-22.756l-147.911-85.333c-5.689-5.689-11.378-5.689-14.222-5.689zM344.178 681.244l68.267 39.822-68.267 39.822v-79.644zM1032.533 701.156c-5.689 0-8.533 0-14.222 2.844s-11.378 8.533-11.378 17.067c-2.844 5.689 0 14.222 2.844 19.911l39.822 68.267c2.844 8.533 11.378 14.222 19.911 14.222 5.689 0 8.533 0 14.222-2.844 11.378-8.533 17.067-22.756 8.533-36.978l-39.822-68.267c-2.844-8.533-11.378-14.222-19.911-14.222z" />
<glyph unicode="&#xe914;" glyph-name="21" d="M918.756 854.756c-68.267 68.267-156.444 105.244-253.156 105.244s-184.889-36.978-253.156-105.244c-68.267-68.267-105.244-156.444-105.244-253.156 0-85.333 28.444-167.822 85.333-230.4l-71.111-71.111c-36.978 19.911-85.333 14.222-113.778-17.067l-179.2-179.2c-19.911-17.067-28.444-42.667-28.444-68.267s11.378-51.2 28.444-71.111c19.911-19.911 45.511-28.444 71.111-28.444s51.2 8.533 71.111 28.444l176.356 176.356c19.911 19.911 28.444 42.667 28.444 71.111 0 17.067-2.844 31.289-11.378 45.511l71.111 71.111c65.422-54.044 145.067-85.333 230.4-85.333 96.711 0 184.889 36.978 253.156 105.244s105.244 156.444 105.244 253.156c0 96.711-36.978 184.889-105.244 253.156zM301.511 183.467l-176.356-176.356c-14.222-14.222-39.822-14.222-54.044 0-8.533 8.533-11.378 17.067-11.378 28.444s2.844 19.911 11.378 28.444l176.356 176.356c14.222 14.222 39.822 14.222 54.044 0 14.222-17.067 14.222-42.667 0-56.889zM876.089 391.111c-56.889-56.889-130.844-88.178-210.489-88.178s-153.6 31.289-210.489 88.178c-56.889 56.889-88.178 130.844-88.178 210.489s31.289 153.6 88.178 210.489c56.889 56.889 130.844 88.178 210.489 88.178s153.6-31.289 210.489-88.178c56.889-56.889 88.178-130.844 88.178-210.489s-31.289-153.6-88.178-210.489zM514.844 598.756c-17.067 0-31.289-14.222-31.289-31.289v-96.711c0-17.067 14.222-31.289 31.289-31.289s31.289 14.222 31.289 31.289v96.711c-2.844 19.911-17.067 31.289-31.289 31.289zM614.4 701.156c-17.067 0-31.289-14.222-31.289-31.289v-196.267c0-17.067 14.222-31.289 31.289-31.289s31.289 14.222 31.289 31.289v196.267c-2.844 17.067-14.222 31.289-31.289 31.289zM713.956 658.489c-17.067 0-31.289-14.222-31.289-31.289v-156.444c0-17.067 14.222-31.289 31.289-31.289s31.289 14.222 31.289 31.289v156.444c-2.844 19.911-14.222 31.289-31.289 31.289zM813.511 760.889c-17.067 0-31.289-14.222-31.289-31.289v-256c0-17.067 14.222-31.289 31.289-31.289s31.289 14.222 31.289 31.289v256c0 17.067-14.222 31.289-31.289 31.289z" />
<glyph unicode="&#xe915;" glyph-name="22" horiz-adv-x="1063" d="M557.949 106.667l256-164.103c32.821-19.692 72.205 13.128 65.641 45.949l-72.205 295.385c0 6.564 0 19.692 0 26.256s6.564 13.128 13.128 19.692l229.744 190.359c32.821 26.256 13.128 78.769-26.256 78.769l-301.949 19.692c-6.564 0-13.128 6.564-19.692 6.564-6.564 6.564-13.128 13.128-13.128 19.692l-118.154 288.821c0 6.564-6.564 13.128-13.128 19.692s-13.128 6.564-26.256 6.564-13.128 0-19.692-6.564c-13.128-6.564-13.128-13.128-19.692-19.692l-111.59-288.821c0-6.564-6.564-13.128-13.128-13.128-6.564-6.564-13.128-13.128-26.256-13.128l-301.949-19.692c-39.385 0-52.513-52.513-26.256-78.769l229.744-190.359c13.128-6.564 13.128-13.128 19.692-19.692 0-6.564 0-19.692 0-26.256l-72.205-275.692c-13.128-45.949 39.385-85.333 78.769-59.077l242.872 157.538c6.564 0 13.128 6.564 19.692 6.564s19.692-6.564 26.256-6.564v0z" />
<glyph unicode="&#xe916;" glyph-name="23" d="M950.857 521.143h-365.714v365.714c0 43.886-29.257 73.143-73.143 73.143s-73.143-29.257-73.143-73.143v-365.714h-365.714c-43.886 0-73.143-29.257-73.143-73.143s29.257-73.143 73.143-73.143h365.714v-365.714c0-43.886 29.257-73.143 73.143-73.143s73.143 29.257 73.143 73.143v365.714h365.714c43.886 0 73.143 29.257 73.143 73.143s-29.257 73.143-73.143 73.143z" />
<glyph unicode="&#xe917;" glyph-name="24" horiz-adv-x="7168" d="M7168 448v0c0-307.2-204.8-512-512-512h-6144c-307.2 0-512 204.8-512 512v0c0 307.2 204.8 512 512 512h6144c307.2 0 512-204.8 512-512z" />
<glyph unicode="&#xe918;" glyph-name="25" horiz-adv-x="896" d="M755.2 271.36h-2.56v79.36c0 66.56-51.2 120.32-115.2 120.32h-168.96v156.16h2.56c84.48 12.8 145.92 92.16 138.24 179.2-5.12 87.040-76.8 156.16-163.84 156.16s-156.16-69.12-163.84-156.16c-5.12-87.040 56.32-166.4 138.24-179.2h2.56v-156.16h-168.96c-64 0-115.2-53.76-115.2-120.32v-79.36h-2.56c-84.48-12.8-145.92-92.16-138.24-179.2 5.12-87.040 76.8-156.16 163.84-156.16s156.16 69.12 163.84 156.16c5.12 87.040-56.32 166.4-138.24 179.2h-2.56v79.36c0 43.52 33.28 76.8 74.24 76.8h378.88c40.96 0 74.24-33.28 74.24-76.8v-79.36h-2.56c-84.48-12.8-145.92-92.16-138.24-179.2 5.12-87.040 76.8-156.16 163.84-156.16 84.48 0 156.16 69.12 163.84 156.16 2.56 87.040-58.88 166.4-143.36 179.2zM248.32 194.56c35.84-35.84 46.080-89.6 25.6-135.68-17.92-46.080-64-76.8-112.64-76.8-66.56 0-122.88 56.32-122.88 125.44 0 51.2 28.16 97.28 74.24 115.2 15.36 7.68 30.72 10.24 46.080 10.24 38.4-2.56 66.56-15.36 89.6-38.4zM335.36 742.4c-17.92 46.080-7.68 99.84 25.6 135.68 23.040 23.040 53.76 35.84 87.040 35.84 15.36 0 30.72-2.56 46.080-10.24 46.080-20.48 74.24-64 74.24-115.2 0-69.12-53.76-125.44-122.88-125.44-46.080 2.56-89.6 33.28-110.080 79.36zM819.2 15.36c-23.040-23.040-53.76-35.84-87.040-35.84-15.36 0-30.72 2.56-46.080 10.24-46.080 20.48-74.24 64-74.24 115.2 0 69.12 53.76 125.44 122.88 125.44 48.64 0 92.16-30.72 112.64-76.8 17.92-48.64 5.12-102.4-28.16-138.24z" />
<glyph unicode="&#xe919;" glyph-name="26" horiz-adv-x="1050" d="M191.672-64v39.385h131.282c34.133 0 65.641 23.631 73.518 57.764l10.503 55.138h-291.446c-63.015 2.626-115.528 52.513-115.528 115.528v372.841c0 63.015 52.513 112.903 115.528 112.903h107.651v10.503c2.626 13.128 2.626 26.256 5.251 36.759l2.626 10.503 60.39 21.005c10.503 2.626 18.379 10.503 23.631 18.379s7.877 18.379 5.251 28.882l-13.128 60.39 7.877 7.877c34.133 31.508 76.144 55.138 120.779 68.267l13.128 7.877 49.887-42.010c5.251-7.877 15.754-10.503 26.256-10.503s21.005 2.626 28.882 10.503l47.262 42.010 10.503-2.626c44.636-13.128 86.646-36.759 120.779-68.267l7.877-7.877-10.503-63.015c-2.626-10.503 0-21.005 5.251-28.882s13.128-15.754 23.631-18.379l57.764-21.005 2.626-10.503c2.626-13.128 5.251-26.256 7.877-39.385v-10.503h107.651c63.015 0 115.528-49.887 115.528-112.903v-372.841c0-63.015-52.513-112.903-115.528-112.903h-288.821l10.503-55.138c7.877-34.133 36.759-57.764 73.518-57.764h131.282v-42.010h-669.538zM435.856 27.897c-2.626-13.128-7.877-23.631-13.128-34.133l-10.503-15.754h225.805l-7.877 15.754c-5.251 10.503-10.503 23.631-13.128 34.133l-13.128 63.015h-154.913l-13.128-63.015zM39.385 203.815c0-39.385 34.133-73.518 73.518-73.518h821.826c42.010 0 73.518 34.133 73.518 73.518v36.759l-15.754-10.503c-18.379-10.503-36.759-15.754-57.764-15.754h-819.2c-21.005 0-39.385 5.251-57.764 15.754l-15.754 10.503v-36.759zM115.528 650.174c-42.010 0-73.518-34.133-73.518-73.518v-246.81c0-39.385 34.133-73.518 73.518-73.518h821.826c42.010 0 73.518 34.133 73.518 73.518v249.436c0 39.385-34.133 73.518-73.518 73.518h-107.651v-10.503c-2.626-13.128-2.626-26.256-5.251-36.759l-7.877-13.128-60.39-21.005c-10.503-2.626-18.379-10.503-23.631-18.379s-7.877-18.379-5.251-28.882l13.128-60.39-7.877-7.877c-34.133-31.508-76.144-55.138-120.779-68.267l-10.503-2.626-49.887 42.010c-7.877 7.877-18.379 10.503-28.882 10.503s-21.005-2.626-28.882-10.503l-47.262-42.010-7.877-2.626c-44.636 13.128-86.646 36.759-120.779 68.267l-7.877 7.877 10.503 63.015c2.626 10.503 0 21.005-5.251 28.882s-13.128 15.754-23.631 18.379l-60.39 18.379-2.626 10.503c-2.626 13.128-5.251 26.256-7.877 39.385v10.503l-105.026 2.626zM433.231 912.738c-26.256-10.503-52.513-23.631-73.518-42.010l-5.251-5.251 7.877-39.385c5.251-21.005 0-39.385-10.503-57.764s-26.256-31.508-47.262-36.759l-39.385-13.128v-5.251c-5.251-28.882-5.251-55.138 0-84.021v-7.877l39.385-13.128c18.379-5.251 36.759-18.379 47.262-36.759s13.128-36.759 10.503-57.764l-7.877-39.385 5.251-5.251c23.631-18.379 47.262-31.508 73.518-42.010l5.251-2.626 28.882 26.256c15.754 13.128 34.133 21.005 55.138 21.005s39.385-7.877 55.138-21.005l31.508-26.256 5.251 2.626c26.256 10.503 52.513 23.631 73.518 42.010l5.251 5.251-5.251 39.385c-5.251 21.005 0 39.385 10.503 57.764s26.256 31.508 47.262 36.759l39.385 13.128v5.251c5.251 28.882 5.251 55.138 0 84.021v7.877l-36.759 10.503c-23.631 7.877-39.385 21.005-49.887 39.385s-13.128 36.759-10.503 57.764l7.877 39.385-5.251 5.251c-23.631 18.379-47.262 31.508-73.518 42.010l-5.251 2.626-28.882-26.256c-15.754-13.128-34.133-21.005-55.138-21.005s-39.385 7.877-55.138 21.005l-31.508 26.256-7.877-2.626zM525.128 555.651c-63.015 0-115.528 49.887-115.528 112.903s52.513 112.903 115.528 112.903 115.528-49.887 115.528-112.903c0-60.39-52.513-112.903-115.528-112.903zM525.128 742.072c-42.010 0-73.518-34.133-73.518-73.518s34.133-73.518 73.518-73.518 73.518 34.133 73.518 73.518c0 42.010-31.508 73.518-73.518 73.518z" />
<glyph unicode="&#xe91a;" glyph-name="27" horiz-adv-x="1178" d="M396.8-64c-51.2 0-89.6 40.96-89.6 89.6v174.080h-94.72c-2.56 0-5.12 0-7.68 0-107.52 0-197.12 81.92-204.8 186.88-2.56 51.2 12.8 102.4 48.64 143.36 33.28 40.96 81.92 64 135.68 69.12h7.68v7.68c7.68 87.040 43.52 168.96 104.96 230.4 61.44 64 140.8 102.4 227.84 115.2 17.92 2.56 35.84 2.56 51.2 2.56 161.28 0 307.2-99.84 360.96-248.32v-2.56l5.12-5.12h2.56c135.68-12.8 235.52-130.56 230.4-263.68-7.68-133.12-117.76-240.64-253.44-240.64h-43.52v-174.080c0-48.64-40.96-89.6-89.6-89.6h-391.68zM396.8 419.84c-28.16 0-51.2-23.040-51.2-48.64v-343.040c0-28.16 23.040-48.64 51.2-48.64h391.68c28.16 0 51.2 23.040 51.2 48.64v340.48c0 28.16-23.040 48.64-51.2 48.64h-391.68zM207.36 563.2c-43.52 0-81.92-15.36-112.64-46.080s-51.2-71.68-51.2-117.76c0-43.52 17.92-87.040 51.2-117.76 30.72-28.16 71.68-46.080 112.64-46.080 2.56 0 2.56 0 5.12 0h94.72v130.56c0 48.64 40.96 89.6 89.6 89.6h10.24v46.080c0 102.4 84.48 184.32 186.88 184.32s186.88-81.92 186.88-184.32v-46.080h10.24c48.64 0 89.6-40.96 89.6-89.6v-130.56h40.96c56.32 0 112.64 23.040 153.6 64 61.44 61.44 79.36 151.040 46.080 230.4s-110.080 130.56-197.12 133.12c-7.68 0-15.36 5.12-17.92 12.8-43.52 143.36-176.64 240.64-330.24 240.64-15.36 0-33.28-2.56-48.64-2.56-168.96-23.040-294.4-163.84-294.4-332.8 0-10.24-10.24-20.48-20.48-20.48-2.56 2.56-5.12 2.56-5.12 2.56zM593.92 647.68c-81.92 0-145.92-64-145.92-143.36v-46.080h291.84v46.080c0 79.36-66.56 143.36-145.92 143.36zM593.92 87.040c-10.24 0-20.48 10.24-20.48 20.48v43.52l-7.68 2.56c-33.28 10.24-53.76 46.080-46.080 79.36 5.12 33.28 35.84 56.32 69.12 56.32 2.56 0 2.56 0 5.12 0h2.56c2.56 0 2.56 0 5.12 0 33.28 0 64-23.040 69.12-56.32 7.68-33.28-12.8-69.12-46.080-79.36l-7.68-2.56v-43.52c-5.12-10.24-12.8-20.48-23.040-20.48zM593.92 250.88c-17.92 0-30.72-12.8-30.72-30.72 0-12.8 7.68-23.040 17.92-28.16 5.12 0 7.68 0 12.8 0 7.68 0 15.36 2.56 20.48 7.68 7.68 7.68 10.24 20.48 7.68 33.28-5.12 10.24-17.92 17.92-28.16 17.92z" />
<glyph unicode="&#xe91b;" glyph-name="28" horiz-adv-x="910" d="M432.356-12.8h-358.4c-11.378 0-25.6 8.533-25.6 25.6v876.089c0 14.222 8.533 25.6 25.6 25.6h620.089c11.378 0 25.6-8.533 25.6-25.6v-341.333c0-14.222 8.533-25.6 25.6-25.6 11.378 0 25.6 8.533 25.6 25.6v338.489c-5.689 42.667-39.822 73.956-76.8 73.956h-620.089c-42.667 0-73.956-31.289-73.956-73.956v-876.089c0-36.978 31.289-73.956 73.956-73.956h358.4c11.378 0 25.6 8.533 25.6 25.6 0 14.222-8.533 25.6-25.6 25.6zM645.689 473.6c-145.067 0-264.533-119.467-264.533-270.222 0-147.911 116.622-270.222 264.533-270.222 145.067 0 264.533 119.467 264.533 270.222-2.844 150.756-122.311 270.222-264.533 270.222zM645.689-15.644c-116.622 0-216.178 96.711-216.178 219.022s96.711 219.022 216.178 219.022c116.622 0 216.178-96.711 216.178-219.022 0-119.467-93.867-219.022-216.178-219.022zM620.089 641.422h-48.356c-25.6 0-48.356-22.756-48.356-48.356v-48.356c0-25.6 22.756-48.356 48.356-48.356h48.356c25.6 0 48.356 22.756 48.356 48.356v48.356c0 25.6-22.756 48.356-48.356 48.356zM620.089 544.711h-48.356v48.356h48.356v-48.356zM668.444 814.933c0 25.6-22.756 48.356-48.356 48.356h-477.867c-25.6 0-48.356-22.756-48.356-48.356v-48.356c0-25.6 22.756-48.356 48.356-48.356h477.867c25.6 0 48.356 22.756 48.356 48.356v48.356zM620.089 766.578h-477.867v48.356h477.867v-48.356zM238.933 593.067c0 25.6-22.756 48.356-48.356 48.356h-48.356c-25.6 0-48.356-19.911-48.356-48.356v-48.356c0-25.6 22.756-48.356 48.356-48.356h48.356c25.6 0 48.356 22.756 48.356 48.356v48.356zM190.578 544.711h-48.356v48.356h48.356v-48.356zM238.933 376.889c0 25.6-22.756 48.356-48.356 48.356h-48.356c-25.6 0-48.356-22.756-48.356-48.356v-48.356c0-25.6 22.756-48.356 48.356-48.356h48.356c25.6 0 48.356 22.756 48.356 48.356v48.356zM190.578 328.533h-48.356v48.356h48.356v-48.356zM190.578 206.222h-48.356c-25.6 0-48.356-22.756-48.356-48.356v-51.2c0-25.6 22.756-48.356 48.356-48.356h48.356c25.6 0 48.356 22.756 48.356 48.356v48.356c0 28.444-22.756 51.2-48.356 51.2zM190.578 106.667h-48.356v48.356h48.356v-48.356zM358.4 641.422c-25.6 0-48.356-22.756-48.356-48.356v-48.356c0-25.6 22.756-48.356 48.356-48.356h48.356c25.6 0 48.356 22.756 48.356 48.356v48.356c0 25.6-22.756 48.356-48.356 48.356h-48.356zM406.756 544.711h-48.356v48.356h48.356v-48.356zM696.889 280.178c11.378 0 25.6 8.533 25.6 25.6 0 14.222-8.533 25.6-25.6 25.6h-28.444v25.6c0 8.533-8.533 19.911-22.756 19.911-11.378 0-25.6-8.533-25.6-25.6v-25.6c-25.6 0-48.356-22.756-48.356-48.356v-48.356c0-25.6 22.756-48.356 48.356-48.356h48.356v-48.356h-73.956c-11.378 0-25.6-8.533-25.6-25.6 0-14.222 8.533-25.6 25.6-25.6h25.6v-25.6c0-14.222 8.533-25.6 25.6-25.6 11.378 0 25.6 8.533 25.6 25.6v31.289c25.6 0 48.356 22.756 48.356 48.356v48.356c0 25.6-22.756 48.356-48.356 48.356h-48.356v48.356h73.956z" />
<glyph unicode="&#xe91c;" glyph-name="29" d="M911.36 417.28c-2.56 0-5.12 2.56-7.68 2.56h-422.4v419.84c0 10.24-10.24 20.48-20.48 20.48-122.88 0-238.080-48.64-327.68-135.68-84.48-87.040-133.12-202.24-133.12-327.68 0-122.88 48.64-238.080 135.68-325.12s202.24-135.68 325.12-135.68 238.080 48.64 325.12 135.68c87.040 87.040 135.68 202.24 135.68 325.12 2.56 10.24-2.56 15.36-10.24 20.48zM442.88 819.2v-412.16l-294.4-291.84c-69.12 76.8-107.52 176.64-107.52 281.6 0 227.84 176.64 412.16 401.92 422.4zM760.32 99.84c-79.36-79.36-186.88-122.88-296.96-122.88-104.96 0-204.8 38.4-284.16 110.080l291.84 291.84h412.16c-5.12-107.52-48.64-204.8-122.88-279.040zM888.32 824.32c-87.040 87.040-202.24 135.68-325.12 135.68-10.24 0-20.48-10.24-20.48-20.48v-440.32c0-10.24 10.24-20.48 20.48-20.48h442.88c10.24 0 20.48 10.24 20.48 20.48-2.56 122.88-51.2 238.080-138.24 325.12zM583.68 517.12v401.92c215.040-10.24 389.12-184.32 399.36-401.92h-399.36zM788.48 678.4c-10.24 0-17.92-2.56-25.6-7.68l33.28 79.36c5.12 10.24 0 23.040-10.24 25.6-10.24 5.12-23.040 0-25.6-10.24l-10.24-25.6c-2.56 25.6-23.040 46.080-48.64 46.080-28.16 0-48.64-23.040-48.64-53.76s23.040-53.76 48.64-53.76c10.24 0 17.92 2.56 25.6 7.68l-33.28-76.8c-5.12-10.24 0-23.040 10.24-25.6 2.56 0 5.12-2.56 7.68-2.56 7.68 0 15.36 5.12 17.92 12.8l10.24 20.48c5.12-25.6 23.040-43.52 48.64-43.52 28.16 0 48.64 23.040 48.64 53.76 0 28.16-23.040 53.76-48.64 53.76zM698.88 716.8c-5.12 0-7.68 5.12-7.68 12.8s5.12 12.8 7.68 12.8c5.12 0 7.68-5.12 7.68-12.8 2.56-7.68-2.56-12.8-7.68-12.8zM788.48 611.84c-5.12 0-7.68 5.12-7.68 12.8s5.12 12.8 7.68 12.8c5.12 0 7.68-5.12 7.68-12.8s-5.12-12.8-7.68-12.8zM204.8 430.080c-7.68 7.68-20.48 10.24-28.16 2.56s-10.24-20.48-2.56-28.16c10.24-15.36 28.16-23.040 46.080-25.6 0-10.24 10.24-17.92 20.48-17.92s17.92 7.68 20.48 17.92c28.16 5.12 51.2 25.6 53.76 51.2 5.12 30.72-15.36 58.88-48.64 71.68-2.56 0-2.56 0-5.12 2.56v43.52c2.56-2.56 5.12-2.56 5.12-5.12 7.68-10.24 17.92-10.24 28.16-5.12 10.24 7.68 10.24 17.92 5.12 28.16-7.68 10.24-20.48 20.48-38.4 23.040 0 10.24-10.24 20.48-20.48 20.48s-20.48-10.24-20.48-20.48v-2.56c-2.56 0-2.56 0-5.12-2.56-20.48-7.68-38.4-28.16-40.96-51.2s10.24-43.52 33.28-53.76c2.56-2.56 7.68-2.56 10.24-5.12v-53.76c-5.12 2.56-10.24 5.12-12.8 10.24zM271.36 432.64c0-7.68-5.12-12.8-12.8-15.36v38.4c10.24-5.12 15.36-15.36 12.8-23.040zM215.040 529.92c0 2.56 2.56 7.68 5.12 10.24v-23.040c-5.12 2.56-5.12 7.68-5.12 12.8zM437.76 261.12c0-10.24 10.24-20.48 20.48-20.48h140.8c10.24 0 20.48 10.24 20.48 20.48s-10.24 20.48-20.48 20.48h-140.8c-12.8-2.56-20.48-10.24-20.48-20.48zM376.32 168.96c0-10.24 10.24-20.48 20.48-20.48h258.56c10.24 0 20.48 10.24 20.48 20.48s-10.24 20.48-20.48 20.48h-258.56c-10.24-2.56-20.48-10.24-20.48-20.48zM596.48 97.28h-140.8c-10.24 0-20.48-10.24-20.48-20.48s10.24-20.48 20.48-20.48h140.8c10.24 0 20.48 10.24 20.48 20.48s-10.24 20.48-20.48 20.48z" />
<glyph unicode="&#xe91d;" glyph-name="30" d="M369.778-64v298.667h284.444v-298.667h-284.444zM412.444-18.489h196.267v82.489h-196.267v-82.489zM412.444 109.511h196.267v82.489h-196.267v-82.489zM0-64v173.511h287.289v-173.511h-287.289zM45.511-18.489h196.267v82.489h-196.267v-82.489zM736.711-64v426.667h287.289v-426.667h-287.289zM782.222-18.489h196.267v82.489h-196.267v-82.489zM782.222 109.511h196.267v82.489h-196.267v-82.489zM782.222 234.667h196.267v82.489h-196.267v-82.489zM73.956 320v45.511h256c128 0 247.467 48.356 335.644 139.378 91.022 91.022 139.378 210.489 139.378 338.489v31.289l-62.578-62.578-31.289 31.289 119.467 116.622 116.622-116.622-31.289-31.289-65.422 62.578v-31.289c0-139.378-54.044-270.222-153.6-369.778s-230.4-153.6-366.933-153.6h-256z" />
<glyph unicode="&#xe91e;" glyph-name="31" horiz-adv-x="579" d="M516.452-64c-17.809 0-35.617 8.904-44.522 17.809l-436.313 418.504c-26.713 17.809-35.617 44.522-35.617 71.235s8.904 62.33 35.617 80.139l427.409 409.6c26.713 26.713 71.235 26.713 97.948 0s26.713-71.235 0-97.948l-418.504-391.791 418.504-400.696c26.713-26.713 26.713-71.235 0-97.948-17.809 0-35.617-8.904-44.522-8.904z" />
<glyph unicode="&#xe91f;" glyph-name="32" horiz-adv-x="579" d="M62.33-64c-17.809 0-35.617 8.904-44.522 17.809-26.713 26.713-26.713 71.235 0 97.948l418.504 400.696-418.504 391.791c-26.713 26.713-26.713 71.235 0 97.948s71.235 26.713 97.948 0l427.409-409.6c17.809-17.809 35.617-53.426 35.617-80.139s-8.904-62.33-35.617-80.139l-427.409-409.6c-17.809-17.809-35.617-26.713-53.426-26.713z" />
<glyph unicode="&#xe920;" glyph-name="33" d="M1016.32 514.56c-10.24 23.040-28.16 43.52-53.76 53.76-12.8 5.12-25.6 7.68-38.4 7.68h-284.16v284.16c0 53.76-43.52 99.84-99.84 99.84h-440.32c-53.76 0-99.84-46.080-99.84-99.84v-440.32c0-56.32 46.080-99.84 99.84-99.84h284.16v-284.16c0-12.8 2.56-25.6 7.68-38.4 10.24-23.040 28.16-43.52 53.76-53.76 12.8-5.12 25.6-7.68 38.4-7.68h440.32c12.8 0 25.6 2.56 38.4 7.68 23.040 10.24 43.52 28.16 53.76 53.76 5.12 12.8 7.68 25.6 7.68 38.4v130.56c0 10.24-10.24 20.48-20.48 20.48s-20.48-10.24-20.48-20.48v-130.56c0-33.28-28.16-58.88-58.88-58.88h-440.32c-33.28 0-58.88 28.16-58.88 58.88v440.32c0 33.28 28.16 58.88 58.88 58.88h440.32c33.28 0 58.88-28.16 58.88-58.88v-128c0-10.24 10.24-20.48 20.48-20.48s20.48 10.24 20.48 20.48v128c0 12.8-2.56 25.6-7.68 38.4zM599.040 576h-115.2c-12.8 0-25.6-2.56-38.4-7.68-7.68-2.56-15.36-7.68-20.48-12.8 0 0-79.36 207.36-79.36 207.36-5.12 10.24-15.36 17.92-25.6 17.92s-20.48-5.12-23.040-15.36c0 0-92.16-238.080-92.16-238.080-5.12-10.24 0-23.040 10.24-25.6 2.56 0 5.12-2.56 7.68-2.56 7.68 0 15.36 5.12 17.92 12.8l17.92 46.080h120.32l15.36-38.4c0-2.56-2.56-2.56-2.56-5.12-5.12-12.8-7.68-25.6-7.68-38.4v-115.2h-284.16c-33.28 0-58.88 28.16-58.88 58.88v440.32c0 33.28 28.16 58.88 58.88 58.88h440.32c33.28 0 58.88-28.16 58.88-58.88v-284.16zM363.52 599.040h-89.6l43.52 115.2 46.080-115.2zM1024 256c0-10.24-10.24-20.48-20.48-20.48s-20.48 10.24-20.48 20.48c0 10.24 10.24 20.48 20.48 20.48s20.48-7.68 20.48-20.48zM604.16 215.040c0-56.32 46.080-99.84 99.84-99.84s99.84 46.080 99.84 99.84c0 10.24-10.24 20.48-20.48 20.48s-20.48-10.24-20.48-20.48c0-33.28-28.16-58.88-58.88-58.88s-58.88 28.16-58.88 58.88 28.16 58.88 58.88 58.88c10.24 0 20.48 10.24 20.48 20.48s-10.24 20.48-20.48 20.48-20.48 10.24-20.48 20.48 10.24 20.48 20.48 20.48h20.48c10.24 0 20.48 10.24 20.48 20.48s-10.24 20.48-20.48 20.48h-20.48c-33.28 0-58.88-28.16-58.88-58.88 0-12.8 2.56-23.040 10.24-33.28-30.72-20.48-51.2-51.2-51.2-89.6z" />
<glyph unicode="&#xe921;" glyph-name="34" d="M45.511 448c0 179.2 102.4 341.333 261.689 418.133s352.711 56.889 492.089-54.044h-71.111c-14.222 0-22.756-11.378-22.756-22.756s11.378-22.756 22.756-22.756h130.844c5.689 0 11.378 2.844 17.067 5.689 5.689 5.689 8.533 11.378 8.533 17.067v133.689c0 5.689-2.844 11.378-5.689 17.067-5.689 5.689-11.378 5.689-17.067 5.689s-11.378-2.844-17.067-5.689c-5.689-5.689-5.689-11.378-5.689-17.067v-79.644c-210.489 173.511-523.378 150.756-705.422-51.2-184.889-201.956-176.356-512 17.067-705.422 2.844-5.689 8.533-8.533 17.067-8.533 5.689 0 11.378 2.844 17.067 5.689 5.689 5.689 5.689 11.378 5.689 17.067s-2.844 11.378-5.689 17.067c-88.178 88.178-139.378 207.644-139.378 329.956zM310.044 29.867c-14.222 5.689-25.6 14.222-39.822 19.911-11.378 5.689-25.6 2.844-31.289-8.533s-2.844-25.6 8.533-31.289c14.222-8.533 28.444-17.067 42.667-22.756 11.378-5.689 25.6 0 31.289 11.378 2.844 11.378 0 25.6-11.378 31.289zM930.133 649.956c5.689-11.378 19.911-17.067 31.289-11.378s17.067 19.911 11.378 31.289c-5.689 14.222-14.222 28.444-22.756 42.667-5.689 11.378-19.911 14.222-31.289 8.533-5.689-2.844-8.533-8.533-11.378-14.222s0-11.378 2.844-17.067c8.533-11.378 14.222-25.6 19.911-39.822zM568.889-15.644c-14.222-2.844-28.444-2.844-45.511-2.844-11.378 0-22.756-11.378-22.756-22.756s11.378-22.756 22.756-22.756c0 0 0 0 0 0 17.067 0 31.289 2.844 48.356 2.844 14.222 2.844 22.756 14.222 19.911 25.6 0 14.222-11.378 22.756-22.756 19.911zM435.2-9.956c-14.222 2.844-28.444 5.689-42.667 8.533-11.378 2.844-25.6-2.844-28.444-17.067-2.844-11.378 2.844-25.6 17.067-28.444 17.067-2.844 31.289-8.533 48.356-11.378 14.222-2.844 25.6 5.689 25.6 19.911s-8.533 25.6-19.911 28.444zM1001.244 459.378c-14.222 0-22.756-8.533-22.756-22.756s-2.844-28.444-2.844-45.511c-2.844-14.222 8.533-25.6 19.911-25.6 0 0 2.844 0 2.844 0 11.378 0 22.756 8.533 22.756 19.911 2.844 17.067 2.844 34.133 2.844 51.2 0 5.689-2.844 11.378-5.689 17.067-5.689 2.844-11.378 5.689-17.067 5.689zM930.133 192c-11.378 8.533-25.6 5.689-31.289-5.689-8.533-11.378-17.067-22.756-25.6-34.133-2.844-5.689-5.689-11.378-5.689-17.067s2.844-11.378 8.533-17.067c5.689-2.844 11.378-5.689 17.067-5.689s11.378 2.844 17.067 8.533c11.378 11.378 19.911 25.6 28.444 39.822 2.844 5.689 5.689 11.378 2.844 17.067s-5.689 11.378-11.378 14.222zM961.422 567.467c2.844-14.222 5.689-28.444 8.533-42.667 2.844-11.378 11.378-19.911 22.756-19.911 0 0 2.844 0 2.844 0 5.689 0 11.378 5.689 14.222 8.533 2.844 5.689 5.689 11.378 2.844 17.067-2.844 17.067-5.689 31.289-11.378 48.356-2.844 11.378-17.067 19.911-28.444 17.067-5.689-2.844-14.222-14.222-11.378-28.444zM807.822 89.6c-11.378-8.533-22.756-17.067-34.133-25.6s-14.222-22.756-5.689-31.289c8.533-11.378 22.756-14.222 31.289-5.689 14.222 8.533 25.6 19.911 39.822 28.444 8.533 8.533 11.378 22.756 2.844 34.133-8.533 5.689-22.756 8.533-34.133 0zM984.178 320c-11.378 2.844-25.6-2.844-28.444-14.222-5.689-14.222-8.533-28.444-14.222-42.667-2.844-5.689-2.844-11.378 0-17.067s5.689-11.378 11.378-14.222c5.689-2.844 11.378-2.844 17.067 0s11.378 5.689 14.222 14.222c5.689 14.222 11.378 31.289 17.067 45.511 2.844 5.689 2.844 11.378-2.844 17.067s-8.533 11.378-14.222 11.378zM694.044 21.333c-14.222-5.689-28.444-11.378-42.667-14.222-11.378-2.844-19.911-17.067-14.222-28.444 2.844-11.378 17.067-19.911 28.444-14.222 14.222 5.689 31.289 11.378 45.511 17.067 11.378 5.689 17.067 19.911 11.378 31.289-2.844 5.689-14.222 11.378-28.444 8.533zM315.733 496.356c0 36.978-25.6 68.267-65.422 76.8-42.667 11.378-88.178-11.378-108.089-51.2-5.689-11.378 0-25.6 11.378-31.289s25.6 0 31.289 11.378c11.378 19.911 34.133 31.289 56.889 25.6 5.689-2.844 28.444-8.533 28.444-31.289s-28.444-42.667-56.889-62.578c-34.133-22.756-71.111-48.356-71.111-88.178 0-11.378 11.378-22.756 22.756-22.756h128c5.689 0 11.378 2.844 17.067 5.689 5.689 5.689 5.689 11.378 5.689 17.067s-2.844 11.378-5.689 17.067c-5.689 5.689-11.378 5.689-17.067 5.689h-93.867c8.533 8.533 22.756 17.067 36.978 28.444 36.978 22.756 79.644 48.356 79.644 99.556zM534.756 419.556c0 14.222-11.378 22.756-22.756 22.756h-19.911v122.311c0 8.533-5.689 19.911-14.222 22.756s-19.911 0-25.6-8.533l-116.622-147.911c-5.689-5.689-5.689-17.067-2.844-25.6s11.378-14.222 19.911-14.222h93.867v-65.422c0-5.689 2.844-11.378 5.689-17.067 5.689-5.689 11.378-5.689 17.067-5.689s11.378 2.844 17.067 5.689c5.689 5.689 5.689 11.378 5.689 17.067v65.422h19.911c5.689 0 11.378 2.844 17.067 5.689 2.844 8.533 5.689 17.067 5.689 22.756zM446.578 442.311h-45.511l45.511 56.889v-56.889zM654.222 601.6c-5.689 0-11.378 0-17.067-2.844s-8.533-8.533-8.533-14.222l-51.2-261.689c-2.844-11.378 5.689-25.6 17.067-28.444 2.844 0 2.844 0 5.689 0 11.378 0 19.911 8.533 22.756 19.911l51.2 261.689c0 5.689 0 11.378-2.844 17.067-5.689 2.844-11.378 8.533-17.067 8.533zM773.689 320c8.533 0 17.067 5.689 22.756 14.222l88.178 210.489c2.844 8.533 2.844 14.222-2.844 22.756-5.689 5.689-11.378 11.378-19.911 11.378h-116.622c-14.222 0-22.756-11.378-22.756-22.756 0-14.222 11.378-22.756 22.756-22.756h82.489l-73.956-176.356c-2.844-8.533-2.844-14.222 2.844-22.756 2.844-11.378 8.533-14.222 17.067-14.222z" />
<glyph unicode="&#xe922;" glyph-name="35" horiz-adv-x="998" d="M440.32 174.080c-28.16 25.6-69.12 23.040-94.72-2.56 0 0-58.88-61.44-64-66.56-28.16 12.8-84.48 46.080-112.64 104.96 5.12 5.12 71.68 69.12 71.68 69.12 12.8 12.8 20.48 30.72 20.48 48.64s-7.68 33.28-17.92 48.64c0 0-66.56 84.48-66.56 84.48-25.6 25.6-71.68 25.6-97.28 0l-48.64-48.64c-17.92-17.92-33.28-71.68-28.16-133.12 5.12-56.32 28.16-143.36 112.64-227.84 76.8-76.8 161.28-102.4 220.16-110.080 15.36-2.56 33.28-2.56 51.2-2.56 38.4 0 74.24 5.12 92.16 20.48l51.2 53.76c12.8 12.8 20.48 30.72 20.48 48.64s-7.68 35.84-20.48 48.64c-2.56 0-89.6 64-89.6 64zM499.2 40.96l-51.2-53.76c-7.68-5.12-51.2-15.36-107.52-7.68-51.2 7.68-128 30.72-197.12 97.28-145.92 151.040-94.72 294.4-87.040 304.64l48.64 51.2c5.12 5.12 12.8 7.68 20.48 7.68s15.36-2.56 20.48-7.68l64-84.48c5.12-5.12 7.68-10.24 7.68-20.48 0-7.68-2.56-15.36-7.68-20.48 0 0-56.32-58.88-61.44-61.44l-17.92 38.4c-5.12 10.24-17.92 15.36-28.16 10.24s-15.36-17.92-10.24-28.16c0 0 33.28-69.12 35.84-71.68 43.52-92.16 158.72-138.24 158.72-138.24s46.080-15.36 66.56-17.92c10.24 0 17.92 5.12 20.48 15.36s-2.56 23.040-15.36 25.6l-33.28 10.24 48.64 51.2c10.24 10.24 28.16 10.24 38.4 0 0 0 87.040-64 87.040-64 5.12-5.12 7.68-12.8 7.68-20.48 0-5.12-5.12-12.8-7.68-15.36zM995.84 634.88c-12.8 99.84-64 186.88-143.36 248.32s-176.64 87.040-273.92 74.24c-97.28-12.8-184.32-64-245.76-143.36-58.88-79.36-84.48-179.2-74.24-276.48 7.68-51.2 23.040-97.28 48.64-143.36l-28.16-133.12c0-7.68 0-12.8 5.12-17.92s10.24-7.68 17.92-7.68l148.48 20.48c53.76-30.72 112.64-43.52 174.080-43.52 15.36 0 33.28 0 48.64 2.56 97.28 12.8 184.32 64 245.76 143.36s89.6 176.64 76.8 276.48zM890.88 384c-53.76-69.12-130.56-115.2-217.6-128-69.12-10.24-138.24 5.12-199.68 38.4l-43.52 40.96c-7.68 7.68-20.48 7.68-28.16 0s-7.68-20.48 0-30.72l12.8-12.8-84.48-10.24 25.6 112.64c0 5.12 0 10.24-2.56 15.36-25.6 40.96-40.96 84.48-48.64 133.12-10.24 87.040 10.24 174.080 64 245.76 53.76 69.12 130.56 115.2 217.6 128 87.040 10.24 171.52-10.24 243.2-66.56 69.12-53.76 112.64-133.12 125.44-222.72 10.24-87.040-12.8-174.080-64-243.2zM755.2 665.6c0 66.56-53.76 120.32-117.76 120.32-66.56 0-117.76-53.76-117.76-120.32 0-10.24 10.24-20.48 20.48-20.48s20.48 10.24 20.48 20.48c0 43.52 33.28 76.8 76.8 76.8 40.96 0 76.8-33.28 76.8-76.8s-33.28-76.8-76.8-76.8c-10.24 0-20.48-10.24-20.48-20.48v-46.080c0-10.24 10.24-20.48 20.48-20.48s20.48 10.24 20.48 20.48v28.16c53.76 7.68 97.28 56.32 97.28 115.2zM637.44 476.16c-15.36 0-28.16-12.8-28.16-28.16s12.8-28.16 28.16-28.16 28.16 10.24 28.16 28.16c0 15.36-12.8 28.16-28.16 28.16zM522.24 476.16c-15.36 0-28.16-12.8-28.16-28.16s12.8-28.16 28.16-28.16c15.36 0 28.16 12.8 28.16 28.16s-10.24 28.16-28.16 28.16zM750.080 476.16c-15.36 0-28.16-12.8-28.16-28.16s12.8-28.16 28.16-28.16c15.36 0 28.16 12.8 28.16 28.16s-12.8 28.16-28.16 28.16z" />
<glyph unicode="&#xe923;" glyph-name="36" d="M738.835-64c-194.43 0-382.38 77.772-518.481 213.873s-213.873 324.051-213.873 518.481c0 71.291 25.924 142.582 71.291 194.43 38.886 51.848 103.696 90.734 174.987 97.215 19.443 0 38.886 0 58.329-12.962 12.962-6.481 25.924-25.924 38.886-38.886l103.696-239.797c0-12.962 6.481-25.924 0-45.367 0-12.962-6.481-25.924-12.962-38.886l-77.772-123.139c38.886-71.291 97.215-129.62 168.506-168.506l123.139 84.253c12.962 6.481 25.924 12.962 38.886 12.962s32.405 0 45.367-6.481l239.797-103.696c19.443-6.481 32.405-19.443 38.886-38.886s12.962-38.886 12.962-58.329c-6.481-71.291-45.367-136.101-97.215-181.468-58.329-38.886-123.139-64.81-194.43-64.81zM259.241 862.785c-45.367-6.481-84.253-32.405-116.658-64.81-25.924-32.405-45.367-77.772-45.367-129.62 0-168.506 64.81-330.532 187.949-453.671s278.684-187.949 453.671-187.949c45.367 0 90.734 19.443 129.62 45.367 32.405 32.405 58.329 71.291 64.81 116.658l-226.835 97.215-123.139-84.253c-12.962-6.481-25.924-12.962-45.367-12.962-12.962 0-32.405 0-45.367 6.481-97.215 51.848-174.987 129.62-220.354 226.835 0 0 0 0 0 0-6.481 12.962-12.962 32.405-12.962 45.367s6.481 32.405 12.962 45.367l84.253 123.139-97.215 226.835zM933.266 201.722v0 0 0zM531.443 292.456c0 0 0 0 0 0s0 0 0 0zM699.949 292.456c0 0 0 0 0 0v0zM784.203 493.367c-19.443 0-38.886 12.962-45.367 38.886-6.481 32.405-25.924 64.81-51.848 84.253-25.924 25.924-51.848 38.886-84.253 51.848-32.405 6.481-45.367 32.405-38.886 58.329s32.405 45.367 58.329 38.886c51.848-12.962 97.215-38.886 129.62-77.772 38.886-38.886 64.81-84.253 77.772-129.62 6.481-25.924-6.481-51.848-32.405-58.329-6.481-6.481-12.962-6.481-12.962-6.481zM939.747 538.734c-19.443 0-38.886 12.962-45.367 38.886-19.443 58.329-51.848 110.177-90.734 155.544-45.367 45.367-97.215 77.772-162.025 90.734-25.924 6.481-45.367 32.405-32.405 58.329 6.481 25.924 32.405 38.886 58.329 32.405 77.772-19.443 149.063-58.329 200.911-116.658 58.329-58.329 97.215-129.62 116.658-200.911 6.481-25.924-6.481-51.848-32.405-58.329-6.481 0-6.481 0-12.962 0z" />
<glyph unicode="&#xe924;" glyph-name="37" d="M508.897-64c-12.412 0-24.824 0-37.236 0-111.709 6.206-223.418 55.855-304.097 130.327-86.885 74.473-142.739 179.976-161.358 291.685-18.618 117.915 0 229.624 55.855 335.127 55.855 99.297 142.739 179.976 242.036 223.418 105.503 43.442 223.418 55.855 335.127 31.030s211.006-93.091 279.273-179.976 105.503-198.594 105.503-316.509c0-148.945-68.267-242.036-179.976-242.036-68.267 0-117.915 31.030-148.945 86.885-43.442-49.648-111.709-86.885-179.976-86.885-130.327 0-242.036 105.503-242.036 242.036s105.503 242.036 242.036 242.036c55.855 0 105.503-18.618 148.945-49.648v0c0 24.824 18.618 49.648 49.648 49.648s49.648-18.618 49.648-49.648v-192.388c0-68.267 12.412-148.945 86.885-148.945s86.885 80.679 86.885 148.945c0 93.091-31.030 186.182-86.885 260.655s-136.533 124.121-229.624 148.945c-93.091 24.824-186.182 12.412-273.067-24.824-86.885-43.442-161.358-105.503-204.8-192.388-43.442-80.679-62.061-179.976-43.442-266.861 18.618-93.091 62.061-173.77 130.327-242.036 68.267-62.061 155.152-99.297 248.242-105.503s186.182 18.618 260.655 68.267c18.618 12.412 49.648 6.206 62.061-12.412s6.206-49.648-12.412-62.061c-74.473-55.855-173.77-86.885-279.273-86.885zM515.103 593.842c-80.679 0-148.945-68.267-148.945-148.945s68.267-148.945 148.945-148.945 148.945 68.267 148.945 148.945v0c-6.206 86.885-68.267 148.945-148.945 148.945z" />
<glyph unicode="&#xe925;" glyph-name="38" horiz-adv-x="596" d="M84.329 960l-84.329-84.329 427.671-427.671-427.671-427.671 84.329-84.329 512 512-512 512z" />
<glyph unicode="&#xe926;" glyph-name="39" horiz-adv-x="596" d="M168.659 448l427.671 427.671-84.329 84.329-512-512 512-512 84.329 84.329z" />
<glyph unicode="&#xe927;" glyph-name="40" horiz-adv-x="1339" d="M1249.805-64h-1155.282c-26.256 0-47.262 10.503-63.015 26.256-21.005 15.754-31.508 42.010-31.508 63.015v892.718c0 0 0 0 0 0v0c0 0 0 0 0 0 0 5.251 0 10.503 0 10.503 0 5.251 5.251 5.251 5.251 10.503 0 0 0 0 0 0s0 0 0 0v0c0 0 0 0 0 0s0 0 0 0 0 0 0 0c5.251 5.251 10.503 5.251 10.503 10.503v0c0 0 0 0 0 0 10.503 10.503 15.754 10.503 21.005 10.503 0 0 0 0 0 0h1260.308c0 0 0 0 0 0 10.503 0 15.754 0 15.754-5.251 0 0 0 0 0 0s0 0 0 0c5.251 0 10.503-5.251 10.503-10.503v0c0 0 0 0 0 0s0 0 0 0 0 0 0 0 0 0 0 0v0c0 0 0 0 0 0 5.251-5.251 5.251-5.251 5.251-10.503s0-5.251 0-10.503c0 0 0 0 0 0v0c0 0 0 0 0 0v-892.718c0-26.256-10.503-47.262-26.256-63.015-5.251-21.005-31.508-31.508-52.513-31.508zM78.769 828.718v-803.446c0-5.251 0-5.251 5.251-10.503 0 0 5.251-5.251 10.503-5.251h1155.282c5.251 0 5.251 0 10.503 5.251s5.251 5.251 5.251 10.503v803.446l-561.887-514.626c-15.754-15.754-36.759-15.754-52.513 0l-572.39 514.626zM141.785 881.231l530.379-483.118 530.379 483.118h-1060.759z" />
<glyph unicode="&#xe928;" glyph-name="41" d="M743.967-64c-196.441 0-384.522 75.233-526.629 217.339s-217.339 330.188-217.339 526.629c0 66.873 25.078 133.747 71.053 188.082 45.976 50.155 108.669 83.592 175.543 91.951 16.718 0 33.437 0 45.976-8.359s25.078-20.898 29.257-33.437l104.49-246.596c4.18-12.539 8.359-25.078 4.18-33.437 0-12.539-4.18-25.078-12.539-33.437l-83.592-133.747c0 0 0-4.18 0-4.18s0-4.18 0-4.18c41.796-83.592 108.669-150.465 188.082-188.082 0 0 4.18 0 4.18 0s4.18 0 4.18 0l129.567 87.771c8.359 8.359 20.898 12.539 33.437 12.539s25.078 0 33.437-4.18l246.596-104.49c16.718-4.18 25.078-16.718 33.437-29.257s12.539-29.257 8.359-45.976c-8.359-66.873-41.796-129.567-91.951-175.543-45.976-54.335-112.849-79.412-179.722-79.412zM254.955 897.306c0 0 0 0 0 0-54.335-8.359-100.31-33.437-137.927-71.053-33.437-41.796-54.335-91.951-54.335-146.286 0-179.722 71.053-351.086 200.62-480.653s296.751-200.62 480.653-200.62c54.335 0 104.49 20.898 146.286 54.335s66.873 83.592 71.053 137.927c0 0 0 4.18 0 8.359 0 0-4.18 4.18-4.18 4.18l-246.596 104.49c0 0-4.18 0-4.18 0s-4.18 0-4.18 0l-129.567-87.771c-16.718-8.359-29.257-12.539-41.796-12.539s-25.078 0-37.616 8.359c-96.131 45.976-171.363 121.208-217.339 217.339 0 0 0 0 0 0-4.18 12.539-8.359 25.078-8.359 37.616s4.18 25.078 12.539 33.437l87.771 133.747c0 0 0 4.18 0 4.18s0 4.18 0 4.18l-104.49 242.416c0 4.18-4.18 4.18-4.18 4.18 0 4.18 0 4.18-4.18 4.18z" />
<glyph unicode="&#xe929;" glyph-name="42" horiz-adv-x="801" d="M402.153 382.836c-96.815 0-178.735 78.196-178.735 178.735s78.196 175.011 178.735 175.011 178.735-78.196 178.735-178.735-81.92-175.011-178.735-175.011zM402.153 680.727c-67.025 0-122.88-55.855-122.88-122.88s55.855-119.156 122.88-119.156 122.88 55.855 122.88 122.88-59.578 119.156-122.88 119.156zM402.153-64c-7.447 0-11.171 0-14.895 3.724-18.618 11.171-387.258 275.549-387.258 618.124 0 107.985 40.96 208.524 115.433 282.996s175.011 115.433 282.996 115.433 208.524-40.96 282.996-115.433c74.473-74.473 115.433-175.011 115.433-282.996 0-346.298-368.64-606.953-383.535-618.124 0-3.724-7.447-3.724-11.171-3.724zM402.153 904.145c-93.091 0-178.735-37.236-242.036-100.538-67.025-67.025-104.262-152.669-104.262-245.76 0-279.273 275.549-506.415 346.298-562.269 70.749 52.131 346.298 282.996 346.298 562.269 0 93.091-37.236 178.735-100.538 242.036-70.749 67.025-156.393 104.262-245.76 104.262z" />
<glyph unicode="&#xe92a;" glyph-name="43" d="M614.4 448l394.971 394.971c29.257 29.257 29.257 73.143 0 102.4s-73.143 29.257-102.4 0l-394.971-394.971-394.971 387.657c-29.257 29.257-73.143 29.257-102.4 0s-29.257-73.143 0-102.4l394.971-387.657-394.971-394.971c-29.257-29.257-29.257-73.143 0-102.4s73.143-29.257 102.4 0l394.971 394.971 394.971-394.971c29.257-29.257 73.143-29.257 102.4 0s29.257 73.143 0 102.4l-394.971 394.971z" />
</font>
</defs>
</svg>
